회원로그인

Movies

[한글] [4K] 수어사이드 스쿼드 Suicide Squad 2016 Theatrical Cut 2160p UHD HDR Bl…

Page

Name : 松本 Hit : 266 Comment : 0
Date18-03-13 03:58

File

Contents

  • File List ( [한글] [4K] 수어사이드 스쿼드 Suicide Squad 2016 Theatrical Cut 2160p UHD HDR BluRay x265 10bit DD5 1 [SGJ5-LorD].torrent )
  • Suicide.Squad.2016.Theatrical.Cut.2160p.UHD.HDR.BluRay.(x265 10bit DD5.1).[SGJ5-LorD].mkv (4.79G)

l8xLPQR.jpg

 


Code: General Complete name : Suicide.Squad.2016.Theatrical.Cut.2160p.UHD.HDR.BluRay.(x265 10bit DD5.1).[SGJ5-LorD].mkv Format : Matroska Format version : Version 4 / Version 2 File size : 4.79 GiB Duration : 2 h 2 min Overall bit rate : 5 583 kb/s Encoded date : UTC 2018-02-26 23:03:09 Writing application : mkvmerge v20.0.0 (I Am The Sun) 64-bit Writing library : libebml v1.3.5 + libmatroska v1.4.8 Cover : Yes Attachments : cover.jpg Video ID : 1 Format : HEVC Format/Info : High Efficiency Video Coding Format profile : Main @Main Codec ID : V_MPEGH/ISO/HEVC Duration : 2 h 2 min Bit rate : 5 048 kb/s Width : 3 840 pixels Height : 2 160 pixels Display aspect ratio : 16:9 Frame rate mode : Constant Frame rate : 23.976 (24000/1001) FPS Color space : YUV Chroma subsampling : 4:2:0 Bit depth : 10 bits Bits/(Pixel*Frame) : 0.025 Stream size : 4.33 GiB (90%) Title : [SGJ5-LorD] Language : English Default : Yes Forced : No Color range : Limited Color primaries : BT.2020 Transfer characteristics : PQ Matrix coefficients : BT.2020 non-constant Audio ID : 2 Format : AC-3 Format/Info : Audio Coding 3 Format settings, Endianness : Big Codec ID : A_AC3 Duration : 2 h 2 min Bit rate mode : Constant Bit rate : 384 kb/s Channel(s) : 6 channels Channel positions : Front: L C R, Side: L R, LFE Sampling rate : 48.0 kHz Frame rate : 31.250 FPS (1536 SPF) Bit depth : 16 bits Compression mode : Lossy Stream size : 338 MiB (7%) Title : Compatibility Track / Dolby Digital Audio / 5.1-EX / 48 kHz / 384 kbps Language : English Service kind : Complete Main Default : Yes Forced : No  Text #12 ID : 14 Format : PGS Muxing mode : zlib Codec ID : S_HDMV/PGS Codec ID/Info : Picture based subtitle format used on BDs/HD-DVDs Duration : 2 h 2 min Bit rate : 16.0 kb/s Count of elements : 2896 Stream size : 14.0 MiB (0%) Language : Korean Default : No Forced : No  한글 자막 내장 정부는 특수 미션을 수행하기 위해 가장 뛰어난 능력을 가진 슈퍼 악당들을 선택해 특별 사면을 대가로 자살 특공대인 수어사이드 스쿼드 팀에 합류시킨다. 그러나 멤버 중 한 명에 빙의한 마녀 인챈트리스가 지구를 멸망시키려 하고, 애인인 할리 퀸을 찾으려 조커가 움직이자 그를 잡으려 배트맨까지 나타나 혼란의 상황을 빚는다.

[한글] [4K] 수어사이드 스쿼드 Suicide Squad 2016 Theatrical Cut 2160p UHD HDR BluRay (x265 10bit DD5 1) [SGJ5-LorD]
Like 0 Bad 0

댓글목록

등록된 댓글이 없습니다.

Search